万有引力 vol.4 2014-2017

J・A・シーザー

演劇実験室◉万有引力 ベスト盤CD第4弾!
「万有引力. Vol.4. 2014-2017」
2022年4月1日通販開始!予約受付中!

『リア王』『身毒丸』『夜叉ケ池』『奴婢訓』『犬神』『愚者たちの機械学』『レミング』『田園に死す-三沢篇-』

2014年5月から2017年8月に行われた公演より厳選された計30曲を収録
天井桟敷から万有引力、寺山修司からシェイクスピアまで!新旧入り乱れ・多種多様な楽曲群!
全曲フルリマスタリング!

01. 悲劇の噂 [2:07]
02. 影の女の唄 [2:23]
03. コーディリア父思う唄 [2:21]
04. コーディリアの唄 [1:58]
05. 大転回の唄 [1:35]
06. 見世物小屋ジンタ [1:29]
07. 大蛇鐘 [2:25]
08. 夜叉ヶ池 [1:59]
09. 歌う戸棚 [1:06]
10. 下女シンデレラ [2:09]
11. 誰が殺した、駒鳥を [2:30]
12. 下女オペラ [2:38]
13. 犬神呪文 [1:49]
14. 月雄誕生歌 [1:43]
15. 少女インディアン歌 [0:57]
16. 影の女の印象病理学 [3:01]
17. 異邦人の揺籠歌 [5:42]
18. 愚者たちの転回曲 [2:18]
19. 地球パノプティコン [2:30]
20. 慈悲心鳥 [3:41]
21. 髪切虫 [0:59]
22. 藁人形の呪い [5:27]
23. お乳たりない、寝足りない [2:40]
24. 宵の明星 [3:15]
25. 噂のフォークロア [3:05]
26. 行き過ぎよ、影 [1:37]
27. 頭足人 [0:53]
28. Come. down. Moses. (2010年Ver.) [3:54]
29. かくれんぼ [1:49]
30. 寺山修司大短歌 [3:33]

FILE “万有引力 Vol.4 2014-2017.flac" WAVE
TRACK 01 AUDIO
TITLE “悲劇の噂"
INDEX 01 00:00:00
TRACK 02 AUDIO
TITLE “影の女の唄"
INDEX 01 02:07:32
TRACK 03 AUDIO
TITLE “コーディリア父思う唄"
INDEX 01 04:30:21
TRACK 04 AUDIO
TITLE “コーディリアの唄"
INDEX 01 06:51:20
TRACK 05 AUDIO
TITLE “大転回の唄"
INDEX 01 08:50:12
TRACK 06 AUDIO
TITLE “見世物小屋ジンタ"
INDEX 01 10:25:06
TRACK 07 AUDIO
TITLE “大蛇鐘"
INDEX 01 11:54:05
TRACK 08 AUDIO
TITLE “夜叉ヶ池"
INDEX 01 14:19:66
TRACK 09 AUDIO
TITLE “歌う戸棚"
INDEX 01 16:18:71
TRACK 10 AUDIO
TITLE “下女シンデレラ"
INDEX 01 17:25:34
TRACK 11 AUDIO
TITLE “誰が殺した、駒鳥を"
INDEX 01 19:34:70
TRACK 12 AUDIO
TITLE “下女オペラ"
INDEX 01 22:05:57
TRACK 13 AUDIO
TITLE “犬神呪文"
INDEX 01 24:43:64
TRACK 14 AUDIO
TITLE “月雄誕生歌"
INDEX 01 26:32:53
TRACK 15 AUDIO
TITLE “少女インディアン歌"
INDEX 01 28:16:27
TRACK 16 AUDIO
TITLE “影の女の印象病理学"
INDEX 01 29:13:57
TRACK 17 AUDIO
TITLE “異邦人の揺籠歌"
INDEX 01 32:15:18
TRACK 18 AUDIO
TITLE “愚者たちの転回曲"
INDEX 01 37:57:31
TRACK 19 AUDIO
TITLE “地球パノプティコン"
INDEX 01 40:16:13
TRACK 20 AUDIO
TITLE “慈悲心鳥"
INDEX 01 42:46:48
TRACK 21 AUDIO
TITLE “髪切虫"
INDEX 01 46:28:05
TRACK 22 AUDIO
TITLE “藁人形の呪い"
INDEX 01 47:27:38
TRACK 23 AUDIO
TITLE “お乳たりない、寝足りない"
INDEX 01 52:54:47
TRACK 24 AUDIO
TITLE “宵の明星"
INDEX 01 55:34:71
TRACK 25 AUDIO
TITLE “噂のフォークロア"
INDEX 01 58:49:74
TRACK 26 AUDIO
TITLE “行き過ぎよ、影"
INDEX 01 61:55:14
TRACK 27 AUDIO
TITLE “頭足人"
INDEX 01 63:32:68
TRACK 28 AUDIO
TITLE “Come down Moses (2010年Ver.)"
INDEX 01 64:26:44
TRACK 29 AUDIO
TITLE “かくれんぼ"
INDEX 01 68:20:34
TRACK 30 AUDIO
TITLE “寺山修司大短歌"
INDEX 01 70:09:37

⦿予告⦿「万有引力Vol.5. 2017-2021」鋭意製作中!
・「Q」「赤糸で縫いとじられた物語」「狂人教育」「リヴォルビング・ランターン」「チェンチ一族」「√」「プロメテウス」「青森県のせむし男」「Ø迷路と死海」​より選曲
・本番未使用曲、未使用ヴァージョンなども収録予定
​・「チェンチ一族」「プロメテウス」の新歌曲をフル収録予定

J・A・シーザー

Posted by bubera