個人的な感想はどうでもいい。全ていつかのために記録しておくべきものを。

Vadim Zhukov - 0 (the beginning...) (2009)

Vadim Zhukov - 0 (the beginning...) (2009)

01. Wake Up
02. Follow Me (feat Anna Heart)
03. Ninety Nine
04. Save Me
05. Don't Cry
06. 0
07. Universum
08. Rain Of Stars
09. Alive (feat. Laura Cyganik)
10. Let The Whole World Know

PERFORMER "Vadim Zhukov"
TITLE "0"
FILE "0 (the beginning...).mp3" WAVE
TRACK 01 AUDIO
PERFORMER "Vadim Zhukov"
TITLE "Wake Up"
INDEX 01 00:00:00
TRACK 02 AUDIO
PERFORMER "Vadim Zhukov"
TITLE "Follow Me (feat. Anna Heart)"
INDEX 01 05:58:72
TRACK 03 AUDIO
PERFORMER "Vadim Zhukov"
TITLE "Ninety Nine"
INDEX 01 12:31:47
TRACK 04 AUDIO
PERFORMER "Vadim Zhukov"
TITLE "Save Me"
INDEX 01 19:22:51
TRACK 05 AUDIO
PERFORMER "Vadim Zhukov"
TITLE "Don't Cry"
INDEX 01 26:02:46
TRACK 06 AUDIO
PERFORMER "Vadim Zhukov"
TITLE "0"
INDEX 01 35:41:58
TRACK 07 AUDIO
PERFORMER "Vadim Zhukov"
TITLE "Universum"
INDEX 01 40:58:65
TRACK 08 AUDIO
PERFORMER "Vadim Zhukov"
TITLE "Rain Of Stars"
INDEX 01 48:33:64
TRACK 09 AUDIO
PERFORMER "Vadim Zhukov"
TITLE "Alive (feat. Laura Cyganik)"
INDEX 01 53:49:23
TRACK 10 AUDIO
PERFORMER "Vadim Zhukov"
TITLE "Let The Whole World Know"
INDEX 01 60:01:44

CDのジャケット用のサイズにリサイズしたもの

次へ 投稿

前へ 投稿

返信する

© 2020 ぶべら