ぶべら

個人的な感想はどうでもいい。全て記録しておきたいものを。

Vadim Zhukov – Evolution (2005)

Vadim Zhukov - Evolution (1)

Vadim Zhukov - Evolution (2)

Vadim Zhukov - Evolution (3)

Vadim Zhukov - Evolution (4)

Vadim Zhukov - Evolution (9)

Vadim Zhukov - Evolution (5)

Vadim Zhukov - Evolution (6)

Vadim Zhukov - Evolution (7)

Vadim Zhukov - Evolution (8)

Vadim Zhukov – Evolution (2005)

Label: iRecords
Catalog#: iRCD001
Format: CD , Mixed
Country: Russia
Released: 25 Dec 2005
Genre: Electronic
Style: Trance, Breaks
Notes: All tracks written and composed by Vadim Zhukov.

Tracklist
01. Intro Evolution [8:50]
02. Moscow Night [7:13]
03. Nothing Matters [6:00]
04. Exit [7:38]
05. Space Connection [7:49]
06. Earth’s Breathing [7:21]
07. Mission 7 [5:43]
08. Fate [5:06]
09. Nothing Matters (Vadim’s Weekend Mix) [6:29]
10. Setting Sun [6:04]
11. Evolution [6:15]
12. Moscow Morning [5:17]
79:51

オリジナルCD購入。
新品未開封だけど開けちゃった。

今まで何度も聞いてきたのに、30~位からの展開に涙
Mission 7はマジ神曲。

REM GENRE Trance
REM DATE 2005
REM DISCID AD12B70C
REM COMMENT “ExactAudioCopy v1.1”
PERFORMER “Vadim Zhukov”
TITLE “Evolution”
FILE “Vadim Zhukov – Evolution.wav” WAVE
TRACK 01 AUDIO
TITLE “Intro Evolution”
PERFORMER “Vadim Zhukov”
INDEX 01 00:00:00
TRACK 02 AUDIO
TITLE “Moscow Night”
PERFORMER “Vadim Zhukov”
INDEX 01 08:50:35
TRACK 03 AUDIO
TITLE “Nothing Matters”
PERFORMER “Vadim Zhukov”
INDEX 01 16:03:45
TRACK 04 AUDIO
TITLE “Exit”
PERFORMER “Vadim Zhukov”
INDEX 01 22:04:37
TRACK 05 AUDIO
TITLE “Space Connection”
PERFORMER “Vadim Zhukov”
INDEX 01 29:42:42
TRACK 06 AUDIO
TITLE “Earth’s Breathing”
PERFORMER “Vadim Zhukov”
INDEX 01 37:31:67
TRACK 07 AUDIO
TITLE “Mission 7”
PERFORMER “Vadim Zhukov”
INDEX 01 44:53:59
TRACK 08 AUDIO
TITLE “Fate”
PERFORMER “Vadim Zhukov”
INDEX 01 50:37:38
TRACK 09 AUDIO
TITLE “Nothing Matters (Vadim’s Weekend Mix)”
PERFORMER “Vadim Zhukov”
INDEX 01 55:44:16
TRACK 10 AUDIO
TITLE “Setting Sun”
PERFORMER “Vadim Zhukov”
INDEX 00 62:14:00
INDEX 01 62:14:04
TRACK 11 AUDIO
TITLE “Evolution”
PERFORMER “Vadim Zhukov”
INDEX 01 68:18:44
TRACK 12 AUDIO
TITLE “Moscow Morning”
PERFORMER “Vadim Zhukov”
INDEX 01 74:33:71

次へ 投稿

前へ 投稿

返信する

*

© 2019 ぶべら