万有引力 プロメテウス −伝奇仕掛けの俳優都市− (2021)

2021年2月1日天井桟敷・万有引力2021

演劇実験室◉万有引力◉実験公演
フォークト=カンプフ検査音楽劇
『プロメテウス』
− 伝奇仕掛けの俳優都市 −

natalie.mu/stage/news/413876

【日程/残席情報】
2021年
1月28日(木)18:30 【完売】
1月29日(金)14:30 【完売】
1月29日(金)18:30 【完売】
1月30日(土)14:30 【完売】
1月30日(土)18:30 【完売】
1月31日(日)14:30 【完売】

【会場】
中野ウエストエンドスタジオ

上演約80分

01. 「アンドロイド誕生」DEMO版
02. 「教主マーサー」DEMO版
03. 「我ら苦難を分かち合わん、ヒトがヒト爲りうるため」DEMO版
04. 「劫火プロメテウス」DEMO版

特典CD
FILE “プロメテウス.wav" WAVE
TRACK 01 AUDIO
INDEX 01 00:00:00
TRACK 02 AUDIO
INDEX 01 02:52:54
TRACK 03 AUDIO
INDEX 01 05:28:39
TRACK 04 AUDIO
INDEX 01 07:33:19