虹翔伝説 CD+DVD (2022)

J・A・シーザー1984,2022

虹翔伝説 CD+DVD (2022)

CD
01. プロローグ「季節的異人」
02. 神話の怒り
03. 起源前夜
04. 少女の夢の素から百獣の王子へ
05. 虹の中の睡蓮と蛇
06. 全能の女神カリー(1)
07. 全能の女神カリー(2)
08. マハマンダバの回廊
09. 夜光貝の螺鈿
10. 水は血
11. 暗黒祖霊祭「ガラスの中の神話」
12. 夢の中の交為
13. 御詠歌「ガラスの中の蛇の旅」
14. 砂漠のキャバレー「オアシス」
15. 地獄の長虫
16. エンディングケチャA「盲目のアリア」
17. エンディングケチャB「迷宮と神話」
53:51

特典CD
Unknown fragment-1
1970年代中期のリサイタルかワークショップ用に再編集されたテープから奇跡的に見つけられた、曲名も元の出展作品も不明の作品
15:53

DVD

118:08

FILE “虹翔伝説 CD.flac" WAVE
TRACK 01 AUDIO
TITLE “トラック"
INDEX 01 00:00:00
TRACK 02 AUDIO
TITLE “トラック"
INDEX 01 05:38:34
TRACK 03 AUDIO
TITLE “トラック"
INDEX 01 07:58:25
TRACK 04 AUDIO
TITLE “トラック"
INDEX 01 10:55:13
TRACK 05 AUDIO
TITLE “トラック"
INDEX 01 13:28:74
TRACK 06 AUDIO
TITLE “トラック"
INDEX 01 16:49:17
TRACK 07 AUDIO
TITLE “トラック"
INDEX 01 17:50:26
TRACK 08 AUDIO
TITLE “トラック"
INDEX 01 19:55:69
TRACK 09 AUDIO
TITLE “トラック"
INDEX 01 22:41:60
TRACK 10 AUDIO
TITLE “トラック"
INDEX 01 24:18:02
TRACK 11 AUDIO
TITLE “トラック"
INDEX 01 27:00:43
TRACK 12 AUDIO
TITLE “トラック"
INDEX 01 30:57:59
TRACK 13 AUDIO
TITLE “トラック"
INDEX 01 36:37:68
TRACK 14 AUDIO
TITLE “トラック"
INDEX 01 40:57:59
TRACK 15 AUDIO
TITLE “トラック"
INDEX 01 44:41:61
TRACK 16 AUDIO
TITLE “トラック"
INDEX 01 45:33:34
TRACK 17 AUDIO
TITLE “トラック"
INDEX 01 49:21:56

FILE “虹翔伝説 DVD.flac" WAVE
TRACK 01 AUDIO
TITLE “Chapter 01"
FLAGS DCP
INDEX 01 00:00:00
TRACK 02 AUDIO
TITLE “Chapter 02"
FLAGS DCP
INDEX 01 15:02:62
TRACK 03 AUDIO
TITLE “Chapter 03"
FLAGS DCP
INDEX 01 24:56:28
TRACK 04 AUDIO
TITLE “Chapter 04"
FLAGS DCP
INDEX 01 29:01:30
TRACK 05 AUDIO
TITLE “Chapter 05"
FLAGS DCP
INDEX 01 41:12:41
TRACK 06 AUDIO
TITLE “Chapter 06"
FLAGS DCP
INDEX 01 50:18:09
TRACK 07 AUDIO
TITLE “Chapter 07"
FLAGS DCP
INDEX 01 66:57:72
TRACK 08 AUDIO
TITLE “Chapter 08"
FLAGS DCP
INDEX 01 108:55:52
TRACK 09 AUDIO
TITLE “Chapter 09"
FLAGS DCP
INDEX 01 116:09:73