ぶべら

個人的な感想はどうでもいい。全ていつかのために記録しておくべきものを。

J・A・シーザー - 疫病流行記 (2020)

J・A・シーザー - 疫病流行記
2020

diskunion.net/jp/ct/detail/1008154459

CD
01. 六十進法の魔術師
02. 伝染過程
03. 釘男
04. 疫病のテーマ ~ つむじ風
05. 疫病月の憂鬱
06. 商船パゴパゴ
07. 痒み
08. 南へ
09. 月下の病ひ鼠
10. また童謡が(歌 蘭妖子)
11. 桃色衛生博覧会
12. 呪文変
13. 暗夜風癩
14. 電球の中の水滴
15. 黄河の姉妹
16. 包帯の川
17. 悪夢の夜
18. わたしはあなたの病気です(歌 新高恵子) ※アムステルダム-ミクリィシアター公演ライブ録音
19. 水面を走る自転車
20. 伝染病菌
21. 死人の恋は永遠だ
22. 米男の船出
23. 南十字星を撃て(歌 J・A・シーザー) ※アムステルダム-ミクリィシアター公演ライブ録音
24. そして劇は伝染してゆく
25. 劇の記憶的黄昏

特典盤
01. 暗夜風癩 β版
02. 南十字星を撃て 疫病版 カラオケ
03. また童謡が カラオケ
04. わたしはあなたの病気です カラオケ

特典盤は白バージョンと黒バージョンあり。

PERFORMER "J・A・シーザー"
TITLE "疫病流行記"
FILE "疫病流行記.wav" WAVE
TRACK 01 AUDIO
PERFORMER "J・A・シーザー"
TITLE "六十進法の魔術師"
INDEX 01 00:00:00
TRACK 02 AUDIO
PERFORMER "J・A・シーザー"
TITLE "伝染過程"
INDEX 01 02:37:44
TRACK 03 AUDIO
PERFORMER "J・A・シーザー"
TITLE "釘男"
INDEX 01 04:33:24
TRACK 04 AUDIO
PERFORMER "J・A・シーザー"
TITLE "疫病のテーマ ~ つむじ風"
INDEX 01 05:41:28
TRACK 05 AUDIO
PERFORMER "J・A・シーザー"
TITLE "疫病月の憂鬱"
INDEX 01 08:46:49
TRACK 06 AUDIO
PERFORMER "J・A・シーザー"
TITLE "商船パゴパゴ"
INDEX 01 11:49:05
TRACK 07 AUDIO
PERFORMER "J・A・シーザー"
TITLE "痒み"
INDEX 01 13:16:54
TRACK 08 AUDIO
PERFORMER "J・A・シーザー"
TITLE "南へ"
INDEX 01 16:04:62
TRACK 09 AUDIO
PERFORMER "J・A・シーザー"
TITLE "月下の病ひ鼠"
INDEX 01 18:57:73
TRACK 10 AUDIO
PERFORMER "J・A・シーザー"
TITLE "また童謡が(歌 蘭妖子)"
INDEX 01 22:41:10
TRACK 11 AUDIO
PERFORMER "J・A・シーザー"
TITLE "桃色衛生博覧会"
INDEX 01 25:24:70
TRACK 12 AUDIO
PERFORMER "J・A・シーザー"
TITLE "呪文変"
INDEX 01 26:28:32
TRACK 13 AUDIO
PERFORMER "J・A・シーザー"
TITLE "暗夜風癩"
INDEX 01 30:45:73
TRACK 14 AUDIO
PERFORMER "J・A・シーザー"
TITLE "電球の中の水滴"
INDEX 01 33:11:74
TRACK 15 AUDIO
PERFORMER "J・A・シーザー"
TITLE "黄河の姉妹"
INDEX 01 37:14:36
TRACK 16 AUDIO
PERFORMER "J・A・シーザー"
TITLE "包帯の川"
INDEX 01 39:53:38
TRACK 17 AUDIO
PERFORMER "J・A・シーザー"
TITLE "悪夢の夜"
INDEX 01 42:34:33
TRACK 18 AUDIO
PERFORMER "J・A・シーザー"
TITLE "わたしはあなたの病気です(歌 新高恵子) ※アムステルダム-ミクリィシアター公演ライブ録音"
INDEX 01 44:38:55
TRACK 19 AUDIO
PERFORMER "J・A・シーザー"
TITLE "水面を走る自転車"
INDEX 01 48:49:02
TRACK 20 AUDIO
PERFORMER "J・A・シーザー"
TITLE "伝染病菌"
INDEX 01 51:16:11
TRACK 21 AUDIO
PERFORMER "J・A・シーザー"
TITLE "死人の恋は永遠だ"
INDEX 01 53:18:32
TRACK 22 AUDIO
PERFORMER "J・A・シーザー"
TITLE "米男の船出"
INDEX 01 54:44:71
TRACK 23 AUDIO
PERFORMER "J・A・シーザー"
TITLE "南十字星を撃て(歌 J・A・シーザー) ※アムステルダム-ミクリィシアター公演ライブ録音"
INDEX 01 56:50:70
TRACK 24 AUDIO
PERFORMER "J・A・シーザー"
TITLE "そして劇は伝染してゆく"
INDEX 01 60:26:59
TRACK 25 AUDIO
PERFORMER "J・A・シーザー"
TITLE "劇の記憶的黄昏"
INDEX 01 63:32:22

PERFORMER "J・A・シーザー"
TITLE "疫病流行記(特典盤)"
FILE "疫病流行記(特典盤).wav" WAVE
TRACK 01 AUDIO
PERFORMER "J・A・シーザー"
TITLE "暗夜風癩 β版"
INDEX 01 00:00:00
TRACK 02 AUDIO
PERFORMER "J・A・シーザー"
TITLE "南十字星を撃て 疫病版 カラオケ"
INDEX 01 04:29:54
TRACK 03 AUDIO
PERFORMER "J・A・シーザー"
TITLE "また童謡が カラオケ"
INDEX 01 10:31:41
TRACK 04 AUDIO
PERFORMER "J・A・シーザー"
TITLE "わたしはあなたの病気です カラオケ"
INDEX 01 13:17:43

次へ 投稿

前へ 投稿

返信する

© 2020 ぶべら