個人的な感想はどうでもいい。全ていつかのために記録しておくべきものを。

万有引力 - 夢のコンタジオン劇 螺旋階段 (劇中曲DEMO CD) (2010)

夢のコンタジオン劇 螺旋階段 (劇中曲DEMO CD) (2010)

6曲入り
16:19

PERFORMER "J・A・シーザー"
TITLE "夢のコンタジオン劇 螺旋階段 (劇中曲DEMO CD)"
FILE "J・A・シーザー - 夢のコンタジオン劇 螺旋階段 (劇中曲DEMO CD).wav" WAVE
TRACK 01 AUDIO
TITLE "Track01"
PERFORMER "J・A・シーザー"
INDEX 01 00:00:00
TRACK 02 AUDIO
TITLE "Track02"
PERFORMER "J・A・シーザー"
INDEX 00 09:41:01
INDEX 01 02:19:01
TRACK 03 AUDIO
TITLE "Track03"
PERFORMER "J・A・シーザー"
INDEX 00 01:00:03
INDEX 01 04:39:03
TRACK 04 AUDIO
TITLE "Track04"
PERFORMER "J・A・シーザー"
INDEX 00 03:20:04
INDEX 01 06:59:04
TRACK 05 AUDIO
TITLE "Track05"
PERFORMER "J・A・シーザー"
INDEX 00 06:10:05
INDEX 01 09:49:05
TRACK 06 AUDIO
TITLE "Track06"
PERFORMER "J・A・シーザー"
INDEX 00 09:00:06
INDEX 01 12:39:06

観客席でつかわれてたようなやつ不明
起源0年不明
起源0年不明 - インスト版?
抽象的な回転動作不明
抽象的な回転動作不明 - インスト版?
不明 - インスト版

ごめんなさいよくわからない。。

次へ 投稿

前へ 投稿

返信する

© 2020 ぶべら