Boris Brejcha - Live Stream Mix (2020)

Boris Brejcha - Live Stream Mix

REM GENRE "テクノ"
REM DATE 2020
TITLE "Live Stream Mix (Mixed)"
FILE "Boris Brejcha - Live Stream Mix (Mixed).wav" WAVE
TRACK 01 AUDIO
TITLE "Cocoloco (Mixed)"
PERFORMER "Boris Brejcha"
INDEX 01 00:00:00
TRACK 02 AUDIO
TITLE "Face Slap (Mixed)"
PERFORMER "Boris Brejcha"
INDEX 01 06:47:02
TRACK 03 AUDIO
TITLE "Panic Room (Mixed)"
PERFORMER "Boris Brejcha"
INDEX 01 13:47:38
TRACK 04 AUDIO
TITLE "Eternity (Mixed)"
PERFORMER "Boris Brejcha"
INDEX 01 19:33:07
TRACK 05 AUDIO
TITLE "Ducktape (Mixed)"
PERFORMER "Boris Brejcha"
INDEX 01 24:55:49
TRACK 06 AUDIO
TITLE "Chameleon (Mixed)"
PERFORMER "Boris Brejcha"
INDEX 01 30:33:42
TRACK 07 AUDIO
TITLE "Silberglanz (Mixed)"
PERFORMER "Boris Brejcha"
INDEX 01 36:40:20
TRACK 08 AUDIO
TITLE "The Final (Mixed)"
PERFORMER "Boris Brejcha"
INDEX 01 42:04:56
TRACK 09 AUDIO
TITLE "Heaven Trip (Mixed)"
PERFORMER "Boris Brejcha"
INDEX 01 47:11:70

久々のどストライク。これはエグイ。
ラスト20分の展開は神

コメントを残す

メールアドレスが公開されることはありません。 * が付いている欄は必須項目です