ぶべら

ぶべら ~The King of クソブログ~

J・A・シーザー – 万有引力◎黙示録 (2011)

J・A・シーザー - 万有引力◎黙示録 (1)

J・A・シーザー - 万有引力◎黙示録 (2)

J・A・シーザー - 万有引力◎黙示録 (3)

J・A・シーザー - 万有引力◎黙示録 (4)

J・A・シーザー - 万有引力◎黙示録 (5)

J・A・シーザー - 万有引力◎黙示録 (6)

J・A・シーザー - 万有引力◎黙示録 (7)

J・A・シーザー – 万有引力◎黙示録 (2011)

01. Prologue
02. スピラ・ミラビリス劇場
03. 肉体の中の古生代
04. 三日月輪廻
05. 不人幻魂合体術
06. 幻燈蝶蛾十六世紀
07. 少女コレクション
08. Wの予言
09. わたし私ワタシ
10. 天使創造すなわち光
11. 何人も語ることなし
12. LastEvolution
13. 絶対運命黙示録
14. 封印呪縛
15. カスパー・シャングリラ
16. ペスト蘇生・肉体合成抄
17. 暗黒序曲
18. 来たれ暗黒~大滅亡(BONUS TRACK)

PERFORMER “J・A・シーザー”
TITLE “万有引力◎黙示録”
FILE “J・A・シーザー – 万有引力◎黙示録.wav” WAVE
TRACK 01 AUDIO
TITLE “Prologue”
PERFORMER “J・A・シーザー”
INDEX 01 00:00:00
TRACK 02 AUDIO
TITLE “スピラ・ミラビリス劇場”
PERFORMER “J・A・シーザー”
INDEX 00 01:20:30
INDEX 01 01:22:30
TRACK 03 AUDIO
TITLE “肉体の中の古生代”
PERFORMER “J・A・シーザー”
INDEX 00 04:42:63
INDEX 01 04:44:63
TRACK 04 AUDIO
TITLE “三日月輪廻”
PERFORMER “J・A・シーザー”
INDEX 00 08:53:58
INDEX 01 08:55:59
TRACK 05 AUDIO
TITLE “不人幻魂合体術”
PERFORMER “J・A・シーザー”
INDEX 00 12:02:55
INDEX 01 12:04:55
TRACK 06 AUDIO
TITLE “幻燈蝶蛾十六世紀”
PERFORMER “J・A・シーザー”
INDEX 00 14:05:07
INDEX 01 14:07:07
TRACK 07 AUDIO
TITLE “少女コレクション”
PERFORMER “J・A・シーザー”
INDEX 00 16:42:44
INDEX 01 16:44:44
TRACK 08 AUDIO
TITLE “Wの予言”
PERFORMER “J・A・シーザー”
INDEX 00 18:44:60
INDEX 01 18:46:60
TRACK 09 AUDIO
TITLE “わたし私ワタシ”
PERFORMER “J・A・シーザー”
INDEX 00 20:40:62
INDEX 01 20:42:62
TRACK 10 AUDIO
TITLE “天使創造すなわち光”
PERFORMER “J・A・シーザー”
INDEX 00 22:13:24
INDEX 01 22:15:24
TRACK 11 AUDIO
TITLE “何人も語ることなし”
PERFORMER “J・A・シーザー”
INDEX 00 24:26:56
INDEX 01 24:28:56
TRACK 12 AUDIO
TITLE “LastEvolution”
PERFORMER “J・A・シーザー”
INDEX 00 28:04:13
INDEX 01 28:06:13
TRACK 13 AUDIO
TITLE “絶対運命黙示録”
PERFORMER “J・A・シーザー”
INDEX 00 30:56:47
INDEX 01 30:58:47
TRACK 14 AUDIO
TITLE “封印呪縛”
PERFORMER “J・A・シーザー”
INDEX 00 32:55:74
INDEX 01 32:57:74
TRACK 15 AUDIO
TITLE “カスパー・シャングリラ”
PERFORMER “J・A・シーザー”
INDEX 00 34:54:50
INDEX 01 34:56:50
TRACK 16 AUDIO
TITLE “ペスト蘇生・肉体合成抄”
PERFORMER “J・A・シーザー”
INDEX 00 37:41:69
INDEX 01 37:43:69
TRACK 17 AUDIO

想像と少し違った。
TITLE “暗黒序曲”
PERFORMER “J・A・シーザー”
INDEX 00 39:34:23
INDEX 01 39:36:23
TRACK 18 AUDIO
TITLE “来たれ暗黒~大滅亡(BONUS TRACK)”
PERFORMER “J・A・シーザー”
INDEX 00 42:21:54
INDEX 01 42:23:54

次へ 投稿

前へ 投稿

返信する

*

© 2018 ぶべら